dm1805 dms

11

Полное имя : Z:\novotelecom\Privet.Andrey.16.04.2022.Satrip.[RiperAM].mp4
Формат : MPEG-4
Профиль формата : Base Media / Version 2
Идентификатор кодека : mp42 (mp42/iso2/avc1/mp41)
Размер файла : 1,20 Гбайт
Продолжительность : 1 ч. 41 м.
Общий поток : 1 699 Кбит/сек
Дата кодирования : UTC 2022-04-16 10:29:44
Дата пометки : UTC 2022-04-16 10:29:44
Программа кодирования : HandBrake 1.4.2 2021100300
Видео
Идентификатор : 1
Формат : AVC
Формат/Информация : Advanced Video Codec
Профиль формата : High@L3.1
Настройки формата : 4 Ref Frames
Параметр CABAC формата : Нет
Параметр RefFrames формата : 4 кадра
Идентификатор кодека : avc1
Идентификатор кодека/Информация : Advanced Video Coding
Продолжительность : 1 ч. 41 м.
Битрейт : 1 500 Кбит/сек
Ширина : 720 пикселя
Высота : 400 пикселей
Соотношение сторон : 16:9
Режим частоты кадров : Постоянный
Частота кадров : 25,000 кадров/сек
Цветовое пространство : YUV
Субдискретизация насыщенности : 4:2:0
Битовая глубина : 8 бит
Тип развёртки : Прогрессивная
Бит/(Пиксели*Кадры) : 0.145
Размер потока : 1,06 Гбайт (88%)
Библиотека кодирования : x264 core 163 r3059 b684ebe0
Настройки программы : cabac=0 / ref=3 / deblock=0:0:0 / analyse=0x3:0x113 / me=hex / subme=7 / psy=1 / psy_rd=1.00:0.00 / mixed_ref=1 / me_range=16 / chroma_me=1 / trellis=1 / 8x8dct=1 / cqm=0 / deadzone=21,11 / fast_pskip=1 / chroma_qp_offset=-2 / threads=32 / lookahead_threads=7 / sliced_threads=0 / nr=0 / decimate=1 / interlaced=0 / bluray_compat=0 / constrained_intra=0 / bframes=3 / b_pyramid=2 / b_adapt=1 / b_bias=0 / direct=1 / weightb=0 / open_gop=0 / weightp=0 / keyint=250 / keyint_min=25 / scenecut=40 / intra_refresh=0 / rc_lookahead=40 / rc=2pass / mbtree=1 / bitrate=1500 / ratetol=1.0 / qcomp=0.60 / qpmin=0 / qpmax=69 / qpstep=4 / cplxblur=20.0 / qblur=0.5 / vbv_maxrate=14000 / vbv_bufsize=14000 / nal_hrd=none / filler=0 / ip_ratio=1.40 / aq=1:1.00
Дата кодирования : UTC 2022-04-16 10:29:44
Дата пометки : UTC 2022-04-16 10:29:44
Цветовой диапазон : Limited
Основные цвета : BT.709
Характеристики трансфера : BT.709
Коэффициенты матрицы : BT.709
Codec configuration box : avcC
Аудио
Идентификатор : 2
Формат : AAC LC
Формат/Информация : Advanced Audio Codec Low Complexity
Идентификатор кодека : mp4a-40-2
Продолжительность : 1 ч. 41 м.
Продолжительность оригинала : 1 ч. 41 м.
Вид битрейта : Постоянный
Битрейт : 192 Кбит/сек
Каналы : 2 канала
Channel layout : L R
Частота : 48,0 КГц
Частота кадров : 46,875 кадров/сек (1024 SPF)
Метод сжатия : С потерями
Размер потока : 140 Мбайт (11%)
Размер потока оригинала : 140 Мбайт (11%)
Заголовок : Stereo
Default : Да
Alternate group : 1
Дата кодирования : UTC 2022-04-16 10:29:44
Дата пометки : UTC 2022-04-16 10:29:44
mdhd_Duration : 6085760

0
2 комментария
Artur Kuramshin

NFT?)

Ответить
Развернуть ветку
Hardy

Порнуха

Ответить
Развернуть ветку
Читать все 2 комментария
null